<?xml version="1.0" standalone="no"?>
<!DOCTYPE svg PUBLIC "-//W3C//DTD SVG 1.1//EN" "http://www.w3.org/Graphics/SVG/1.1/DTD/svg11.dtd" >
<svg xmlns="http://www.w3.org/2000/svg">
<metadata>Generated by IcoMoon</metadata>
<defs>
<font id="icomoon" horiz-adv-x="1024">
<font-face units-per-em="1024" ascent="960" descent="-64" />
<missing-glyph horiz-adv-x="1024" />
<glyph unicode="&#x20;" horiz-adv-x="512" d="" />
<glyph unicode="&#xe900;" glyph-name="Accordion" d="M768.631 699.311h-513.262c-5.716 0-10.351-4.635-10.351-10.351v-63.834c0-5.716 4.635-10.351 10.351-10.351h513.262c5.716 0 10.351 4.635 10.351 10.351v63.834c0 5.716-4.635 10.351-10.351 10.351zM283.405 631.164l-8.626 8.195 17.361 17.9-17.361 17.9 8.626 8.195 26.094-26.094-26.094-26.094zM512 641.516h-178.995v30.191h178.995v-30.191zM768.631 281.226h-513.262c-5.716 0-10.351-4.635-10.351-10.351v-63.835c0-5.716 4.635-10.351 10.351-10.351h513.262c5.716 0 10.351 4.635 10.351 10.351v63.835c0 5.716-4.635 10.351-10.351 10.351zM283.405 213.079l-8.626 8.195 17.361 17.9-17.361 17.9 8.626 8.195 26.094-26.094-26.094-26.094zM512 223.43h-178.995v30.191h178.995v-30.191zM768.631 604.422h-513.262c-5.716 0-10.351-4.635-10.351-10.351v-63.835c0-5.716 4.635-10.351 10.351-10.351h10.675v-214.218c0-5.716 4.635-10.351 10.351-10.351h471.209c5.716 0 10.351 4.635 10.351 10.351v214.218h10.675c5.716 0 10.351 4.635 10.351 10.351v63.835c0 5.716-4.635 10.351-10.351 10.351zM333.005 576.819h142.646v-30.191h-142.646v30.191zM274.239 579.73l17.9-17.361 17.9 17.361 8.195-8.626-26.095-26.095-26.095 26.095 8.197 8.626zM737.253 316.018h-450.506v203.867h450.506v-203.867zM309.499 498.895h360.506v-26.35h-360.506v26.35zM309.499 455.681h297.958v-26.35h-297.958v26.35zM309.499 412.467h234.313v-26.35h-234.313v26.35zM309.499 367.672h280.95v-26.35h-280.95v26.35z" />
<glyph unicode="&#xe901;" glyph-name="AppearIn" d="M796.032 501.249c0-47.616 0-95.232 0-142.848 0-0.896 0-1.792 0-2.816 0-1.152 0-2.432-1.152-3.072-1.408-0.64-2.176 0.512-2.944 1.408-13.056 13.312-25.856 27.008-39.040 40.064-5.504 5.376-7.040 11.264-7.040 18.688 0.256 60.672 0.128 121.472 0.128 182.144 0 4.736 1.408 8.448 4.736 11.776 13.568 13.824 27.008 27.776 40.448 41.6 1.024 1.024 1.792 2.816 3.584 2.176 1.92-0.768 1.28-2.688 1.28-4.224 0-48.256 0-96.64 0-144.896zM717.312 478.209v0c0 0.64 0.128 1.152 0.128 1.792 0 49.28 0 98.56 0 147.84 0 1.664-0.128 3.2-0.384 4.864-3.072 13.184-13.696 21.632-27.392 21.632-93.44 0-186.88 0-280.32 0-27.52 0-54.912 0-82.432 0-15.616 0-27.52-11.904-27.648-27.392 0-10.496 0-21.12 0-31.616 1.664 0 3.2-0.128 4.864-0.128 109.44 0 218.752 0 328.192 0 4.224 0 8.32-0.512 12.16-2.048 9.728-3.968 15.104-11.392 17.28-21.504 0-0.512-0.128-0.896-0.128-1.408 0-71.68 0-143.232 0-214.912 0-1.408 0.128-2.816 0.128-4.224 13.824 0 27.52 0.128 41.344 0.128 4.992 0 8.32 2.176 10.624 6.272 2.56 4.736 3.584 9.856 3.584 15.36 0 34.176 0 68.224 0.128 102.4 0.128 0.896 0 1.92-0.128 2.944zM648.96 341.761c-0.128 71.936 0.256 143.744-0.128 215.68-2.176 12.544-10.496 21.376-22.912 24.064-3.2 0.64-6.4 0.768-9.728 0.768-96.768 0-193.536 0-290.304 0-11.648 0-23.424 0-35.072 0-1.792 0-3.712 0.256-5.376-1.024-9.6 0-19.2-0.128-28.8-0.128-5.248 0-10.368-1.024-14.976-3.84-9.472-5.76-13.696-14.336-13.696-25.216 0-33.664 0-67.2 0-100.864 0-48.512 0-97.152 0-145.664 0-9.6 3.072-17.664 10.752-23.68 5.76-4.48 12.416-5.76 19.584-5.76 40.192 0 80.384 0 120.704 0 2.56 0 4.608-0.64 6.784-2.048 40.064-28.16 80.128-56.192 120.192-84.352 0.896-0.64 1.664-2.048 3.328-1.408 0 27.776 0 55.424 0 83.072 0 4.736 0 4.736 4.608 4.736 34.816 0 69.504 0.256 104.32-0.128 19.328-0.128 30.848 14.336 29.952 29.824-0.64 10.368 0 20.864 0 31.232 0.896 1.408 0.768 3.072 0.768 4.736zM501.888 354.817c-8.832 0.256-17.664 0.128-26.368 0-2.304 0-2.944 0.768-2.944 2.944 0.128 3.456 0 6.912 0 11.008-2.432-1.92-4.48-3.584-6.656-5.248-29.824-23.296-74.112-13.952-93.056 20.864-6.4 11.776-9.344 24.192-9.728 37.504-0.384 16.256 2.304 31.744 11.264 45.696 10.752 16.896 25.6 27.904 45.824 30.464 17.792 2.304 33.664-2.432 47.232-14.464 1.536-1.408 3.072-2.688 5.12-4.608 0 4.992 0.128 8.96 0 13.056-0.128 2.176 0.64 2.688 2.816 2.688 9.088-0.128 18.048-0.128 27.136 0 2.56 0 2.944-0.896 2.944-3.2-0.128-22.016 0-44.032 0-66.048 0-22.4 0-44.8 0-67.072-0.128-2.56-0.64-3.584-3.584-3.584zM439.040 469.121c-17.408 1.152-31.744-7.296-38.4-23.424-6.272-15.104-5.888-30.592 1.536-45.312 13.312-26.624 47.616-25.472 62.336-7.168 7.424 9.216 10.112 19.84 10.24 31.36 0 5.376-0.768 10.624-2.176 15.744-4.608 16.256-18.048 27.776-33.536 28.8z" />
<glyph unicode="&#xe902;" glyph-name="ArithmeticQuiz" d="M512 749.44c-166.127 0-300.8-134.673-300.8-300.8s134.673-300.8 300.8-300.8 300.8 134.673 300.8 300.8-134.673 300.8-300.8 300.8zM484.503 314.164l-25.649-25.649-35.241 35.241-35.241-35.241-25.649 25.649 35.241 35.241-35.241 35.241 25.649 25.649 35.241-35.241 35.241 35.241 25.649-25.649-35.241-35.241 35.241-35.241zM491.588 526.495h-49.838v-49.838h-36.273v49.838h-49.838v36.273h49.838v49.838h36.273v-49.838h49.838v-36.273zM608.221 278.185c-11.726 0-21.233 9.507-21.233 21.233s9.507 21.233 21.233 21.233c11.726 0 21.233-9.507 21.233-21.233s-9.507-21.233-21.233-21.233zM676.196 331.269h-135.95v36.273h135.95v-36.273zM586.989 399.68c0 11.726 9.507 21.233 21.233 21.233s21.233-9.507 21.233-21.233-9.507-21.233-21.233-21.233c-11.727-0.001-21.233 9.505-21.233 21.233zM676.196 526.495h-135.95v36.273h135.95v-36.273z" />
<glyph unicode="&#xe903;" glyph-name="BoardGame" d="M380.289 307.767l129.253-69.541 129.108 69.541-129.108 69.398zM253.060 379.044l129.108 69.542-129.108 69.542-129.252-69.542zM580.819 447.141c0.289 2.024 0.579 4.193 0.868 6.651 1.157 9.398 3.47 16.771 6.217 23.132l-76.626 41.204-129.108-69.542 129.108-69.542 67.373 36.289c-0.145 13.88 0.867 21.253 2.168 31.808zM510.121 656.49l-126.651-68.241 129.108-69.542 76.915 41.349c-0.145 1.157-0.145 2.313-0.145 3.325 0 17.204 8.819 32.241 22.266 40.915l-99.036 53.349zM768.481 517.405l-78.94-42.506c2.313-5.928 4.338-12.723 5.349-21.108 0.289-2.458 0.579-4.626 0.868-6.651 1.302-9.542 2.168-16.481 2.168-28.049l73.157-39.325 126.651 68.096zM677.253 455.237c-2.313 20.53-10.843 30.072-15.036 40.049-3.181 7.807-5.638 23.277-2.168 33.398 6.651 6.506 10.843 16.049 10.843 26.602 0 19.807-14.602 35.855-32.53 35.855s-32.53-16.049-32.53-35.855c0-10.554 4.193-20.096 10.843-26.602 3.47-10.121 1.012-25.59-2.168-33.398-4.049-9.976-12.723-19.519-15.036-40.049s-3.904-24.579 0-71.566c9.542-14.892 33.253-15.325 38.892-15.325 5.638-0.145 29.349 0.289 38.892 15.325 3.904 46.988 2.313 51.181 0 71.566z" />
<glyph unicode="&#xe904;" glyph-name="Chart" d="M414.138 308.623c-7.921-1.193-15.997-1.889-24.183-2.164v-110.78h438.205v24.183h-414.022v88.762zM442.19 242.596h72.913v111.048c-21.199-17.44-45.919-30.733-72.913-38.742v-72.306zM546.542 242.596h72.913v262.652h-28.53c-1.985-44.997-18.262-86.255-44.383-119.416v-143.236zM650.895 577.8h72.913v-335.203h-72.913v335.203zM755.247 453.979h72.913v-211.383h-72.913v211.383zM414.132 330.214c0.001 0 0.003 0 0.005 0.001 4.069 0.686 8.092 1.507 12.068 2.451 5.425 1.288 10.755 2.812 15.985 4.561 8.083 2.703 15.927 5.932 23.482 9.654 1.889 0.931 3.759 1.892 5.612 2.884 3.704 1.984 7.333 4.090 10.881 6.313 1.774 1.112 3.528 2.253 5.261 3.424 9.949 6.721 19.217 14.376 27.677 22.836 4.23 4.23 8.26 8.663 12.070 13.281 1.906 2.309 3.758 4.664 5.553 7.066 3.589 4.8 6.954 9.779 10.079 14.921 1.297 2.134 2.525 4.312 3.738 6.502 13.437 24.259 21.659 51.804 23.101 81.143 0.152 3.092 0.237 6.203 0.237 9.332 0 9.683-0.736 19.195-2.154 28.481-0.946 6.191-2.195 12.283-3.734 18.258-16.143 62.744-64.028 112.748-125.517 131.872-5.856 1.821-11.836 3.363-17.924 4.608-9.13 1.869-18.504 3.072-28.067 3.556-3.187 0.161-6.395 0.243-9.623 0.243-12.911 0-25.517-1.308-37.691-3.799-6.088-1.245-12.067-2.787-17.923-4.608-5.857-1.821-11.589-3.923-17.184-6.289-8.39-3.549-16.467-7.693-24.179-12.379-5.14-3.123-10.12-6.488-14.92-10.079-7.2-5.385-14.001-11.277-20.347-17.623-4.23-4.23-8.26-8.663-12.070-13.281-1.906-2.309-3.757-4.664-5.551-7.064-5.385-7.201-10.264-14.802-14.582-22.752-1.44-2.65-2.817-5.339-4.131-8.064-6.566-13.627-11.529-28.172-14.643-43.389-2.491-12.174-3.799-24.78-3.799-37.691s1.308-25.517 3.799-37.691c3.114-15.218 8.077-29.763 14.643-43.389 1.313-2.725 2.691-5.414 4.131-8.064 4.319-7.95 9.197-15.551 14.582-22.752 1.795-2.4 3.647-4.756 5.551-7.066 3.811-4.618 7.84-9.051 12.070-13.281 6.346-6.346 13.146-12.238 20.347-17.623 4.801-3.59 9.779-6.956 14.92-10.079 7.712-4.686 15.789-8.829 24.179-12.379 5.595-2.365 11.327-4.467 17.184-6.289 5.856-1.821 11.835-3.363 17.923-4.608 12.175-2.491 24.781-3.799 37.691-3.799 2.38 0 4.736 0.091 7.094 0.179 8.205 0.302 16.273 1.139 24.177 2.47zM542.794 514.58c0-33.28-10.228-64.211-27.692-89.836-5.674-8.326-12.104-16.099-19.205-23.201l-113.037 113.038v159.932c88.187 0 159.933-71.745 159.933-159.933z" />
<glyph unicode="&#xe905;" glyph-name="Collage" d="M796.26 431.679h-257.059c-6.008 0-10.881-4.872-10.881-10.881v-251.617c0-6.008 4.872-10.881 10.881-10.881h257.059c6.008 0 10.881 4.872 10.881 10.881v251.619c0 6.008-4.872 10.88-10.881 10.88zM785.38 296.468l-43.933-50.697-70.813 81.715-18.445-21.285c-4.005 14.321-17.14 24.829-32.74 24.829-18.779 0-34.002-15.223-34.002-34.002 0-17.28 12.893-31.539 29.583-33.708l-27.22-31.411-37.725 43.533v134.474h235.296v-113.449zM484.799 737.7h-257.059c-6.008 0-10.881-4.872-10.881-10.881v-557.64c0-6.008 4.872-10.881 10.881-10.881h257.059c6.008 0 10.881 4.872 10.881 10.881v557.641c-0.001 6.010-4.873 10.88-10.881 10.88zM473.917 296.468l-43.933-50.697-70.813 81.715-18.445-21.285c-4.005 14.321-17.14 24.829-32.74 24.829-18.779 0-34.002-15.223-34.002-34.002 0-17.28 12.893-31.539 29.583-33.708l-27.22-31.411-37.725 43.533v440.495h235.296v-419.47zM796.26 737.7h-257.059c-6.008 0-10.881-4.872-10.881-10.881v-251.617c0-6.008 4.872-10.881 10.881-10.881h257.059c6.008 0 10.881 4.872 10.881 10.881v251.619c0 6.010-4.872 10.88-10.881 10.88zM785.38 602.491l-43.933-50.697-70.813 81.715-18.445-21.285c-4.005 14.321-17.14 24.829-32.74 24.829-18.779 0-34.002-15.223-34.002-34.002 0-17.28 12.893-31.539 29.583-33.708l-27.22-31.411-37.725 43.533v134.473h235.296v-113.448z" />
<glyph unicode="&#xe906;" glyph-name="CoursePresentation" d="M745.49 660.058h-195.178c-3.648 9.821-18.662 16.838-36.483 16.838h-3.508c-17.96 0-32.833-7.016-36.483-16.838h-195.316c-17.54 0-31.711-14.452-31.711-31.992v-0.561c0-11.927 6.173-22.17 15.855-27.642-0.141-1.403-0.421-2.666-0.421-4.069v-222.54c0-30.449 25.257-55.565 55.706-55.565h162.906c-0.842 0-1.544-0.982-2.245-1.683l-84.611-84.47c-7.016-7.016-7.016-18.1 0-25.116 3.508-3.508 7.997-5.192 12.628-5.192s9.402 1.683 12.909 5.192l70.017 69.737v-98.642c0-11.365 8.98-20.486 20.346-20.486s20.346 9.12 20.346 20.486v102.29l73.105-73.385c3.508-3.508 7.858-5.192 12.488-5.192s9.12 1.683 12.488 5.192c7.016 7.016 6.875 18.241 0 25.116l-84.611 84.329c-0.701 0.701-1.544 1.683-2.386 1.683h159.258c30.449 0 55.424 25.116 55.424 55.565v222.679c0 0.561-0.141 1.123-0.141 1.824 12.488 4.349 21.188 16.136 21.188 30.028v0.561c0.143 17.4-14.029 31.853-31.569 31.853zM719.672 373.253c0-10.804-8.138-20.486-18.943-20.486h-382.779c-10.804 0-19.223 9.682-19.223 20.486v222.259h420.946v-222.259zM404.666 395.283c44.059 0 79.839 34.657 80.12 79.558h-79.419v80.541c0 0-0.421 0-0.561 0-44.2 0-80.12-35.78-80.12-80.12-0.141-44.059 35.78-79.98 79.98-79.98zM524.494 530.967h138.771c6.875 0 12.488 5.752 12.488 12.628s-5.613 12.628-12.488 12.628h-138.771c-6.875 0-12.488-5.752-12.488-12.628s5.613-12.628 12.488-12.628zM524.494 488.873h161.924c6.875 0 12.488 5.752 12.488 12.628s-5.613 12.628-12.488 12.628h-161.924c-6.875 0-12.488-5.752-12.488-12.628s5.613-12.628 12.488-12.628zM524.494 442.569h119.268c6.875 0 12.488 5.752 12.488 12.628s-5.613 12.628-12.488 12.628h-119.268c-6.875 0-12.488-5.752-12.488-12.628s5.613-12.628 12.488-12.628zM524.494 399.072h145.928c6.875 0 12.488 5.752 12.488 12.628s-5.613 12.628-12.488 12.628h-145.928c-6.875 0-12.488-5.752-12.488-12.628s5.613-12.628 12.488-12.628z" />
<glyph unicode="&#xe907;" glyph-name="DialogueCards" d="M722.478 631.050l-223.013 80.952c-15.672 5.751-32.927-2.445-38.679-18.117l-10.927-30.195h103.383c27.75 0 50.757-22.431 50.757-50.181v-397.857c0 0.431 0.143 0.719 0.288 1.006l136.452 375.713c5.608 15.672-2.588 32.927-18.26 38.679zM579.553 611.926c0 16.68-13.516 30.195-30.195 30.195h-237.248c-16.68 0-30.195-13.516-30.195-30.195v-399.726c0-16.68 13.516-30.195 30.195-30.195h237.248c16.68 0 30.195 13.516 30.195 30.195v399.726zM368.188 370.509c-2.588-0.719-5.464-1.582-8.339-1.582-0.143 0-0.143 0-0.288 0-1.437 0-2.732 1.294-3.020 2.876-0.431 1.869 0.863 3.020 1.869 4.314 3.739 4.17 8.052 8.052 11.215 15.96-15.529 9.059-25.594 23.005-25.594 38.679 0 27.319 30.339 49.318 67.724 49.318s67.724-21.999 67.724-49.318-30.339-49.318-67.724-49.318c-5.896 0-11.503 0.575-16.966 1.437-7.909-5.609-16.968-9.778-26.601-12.366zM502.34 351.384c1.006-1.294 2.3-2.445 1.869-4.17s-1.869-3.020-3.308-2.732c-2.876 0.431-5.751 0.863-8.339 1.582-9.778 2.445-18.836 6.614-26.744 12.366-5.464-1.006-11.072-1.582-16.966-1.582-17.398 0-33.358 4.745-45.436 12.653 2.732-0.143 5.751-0.431 8.484-0.431 20.705 0 40.26 6.039 55.214 16.823 16.104 11.79 24.876 27.607 24.876 44.861 0 5.033-0.719 9.921-2.157 14.666 16.248-8.915 26.888-23.15 26.888-39.254 0-15.672-10.065-29.62-25.594-38.679 3.163-8.051 7.476-11.79 11.214-16.104z" />
<glyph unicode="&#xe908;" glyph-name="DocumentationTool" d="M604.027 704.91h-41.533c-0.355 27.845-22.862 49.847-50.493 49.847s-50.139-22.002-50.493-49.847h-154.321c-18.182 0-32.922-14.739-32.922-32.922v-489.386c0-18.182 14.739-32.922 32.922-32.922h409.629c18.182 0 32.922 14.739 32.922 32.922v489.386c0 18.182-14.739 32.922-32.922 32.922h-112.788zM512 734.305c16.369 0 29.711-11.843 30.043-29.395h-60.086c0.33 17.553 13.674 29.395 30.043 29.395zM699.306 199.263h-374.612v456.067h95.279v-34.962h184.054v34.962h95.279v-456.067zM552.579 329.751c-1.196 1.196-2.856 1.86-4.516 1.86s-3.32-0.664-4.516-1.86l-43.566-43.633-19.525 19.592c-1.196 1.196-2.856 1.86-4.516 1.86s-3.32-0.664-4.516-1.86l-9.033-9.033c-1.196-1.196-1.86-2.856-1.86-4.516s0.664-3.32 1.86-4.516l33.073-33.074c1.196-1.196 2.856-1.86 4.516-1.86s3.32 0.664 4.516 1.86l57.115 57.116c1.196 1.196 1.86 2.856 1.86 4.516s-0.664 3.32-1.86 4.516l-9.032 9.032zM429.981 543.588c0-11.45-9.282-20.732-20.732-20.732s-20.732 9.282-20.732 20.732c0 11.45 9.282 20.732 20.732 20.732s20.732-9.282 20.732-20.732zM449.837 556.782h185.646v-26.386h-185.646v26.386zM449.837 481.391h185.646v-26.386h-185.646v26.386zM449.837 406.002h185.646v-26.386h-185.646v26.386zM429.981 468.198c0-11.45-9.282-20.732-20.732-20.732s-20.732 9.282-20.732 20.732c0 11.45 9.282 20.732 20.732 20.732s20.732-9.282 20.732-20.732zM429.981 392.809c0-11.45-9.282-20.732-20.732-20.732s-20.732 9.282-20.732 20.732c0 11.45 9.282 20.732 20.732 20.732s20.732-9.282 20.732-20.732z" />
<glyph unicode="&#xe909;" glyph-name="DragandDrop" d="M579.144 346.428h-28.534v23.994h28.534v-23.994zM522.075 346.428h-28.534v23.994h28.534v-23.994zM465.006 346.428h-28.534v23.994h28.534v-23.994zM407.939 346.428h-28.534v23.994h28.534v-23.994zM350.87 346.428h-28.534v23.994h28.534v-23.994zM293.801 346.428h-28.534v23.994h28.534v-23.994zM236.733 346.428h-13.482c-7.382 0-14.547 2.093-20.724 6.052l12.947 20.2c2.305-1.477 4.995-2.258 7.777-2.258h13.482v-23.994zM612.812 350.936l-11.296 21.17c4.687 2.501 7.599 7.373 7.599 12.713l23.994 0.106v-0.106c0-14.22-7.776-27.203-20.297-33.883zM208.854 386.913h-23.994v28.534h23.994v-28.534zM633.108 413.459h-23.994v28.534h23.994v-28.534zM208.854 443.982h-23.994v28.534h23.994v-28.534zM633.108 470.527h-23.994v28.534h23.994v-28.534zM208.854 501.050h-23.994v28.534h23.994v-28.534zM633.108 527.596h-23.994v28.534h23.994v-28.534zM208.854 558.118h-23.994v28.534h23.994v-28.534zM633.108 584.663h-23.994v28.534h23.994v-28.534zM208.854 615.186h-23.994v28.534h23.994v-28.534zM633.108 641.732h-23.994v28.534h23.994v-28.534zM184.86 672.255v0.054c0 14.185 7.75 27.154 20.229 33.846l11.338-21.146c-4.672-2.505-7.574-7.372-7.574-12.699l-23.994-0.055zM602.476 684.461c-2.301 1.468-4.984 2.244-7.757 2.244h-13.536v23.994h13.536c7.351 0 14.495-2.077 20.657-6.007l-12.9-20.23zM552.649 686.705h-28.534v23.994h28.534v-23.994zM495.58 686.705h-28.534v23.994h28.534v-23.994zM438.511 686.705h-28.534v23.994h28.534v-23.994zM381.444 686.705h-28.534v23.994h28.534v-23.994zM324.375 686.705h-28.534v23.994h28.534v-23.994zM267.308 686.705h-28.534v23.994h28.534v-23.994zM825.060 224.495c0-14.615-11.779-26.394-26.394-26.394h-371.469c-14.615 0-26.394 11.779-26.394 26.394v287.489c0 14.615 11.779 26.394 26.394 26.394h371.469c14.615 0 26.394-11.779 26.394-26.394v-287.489z" />
<glyph unicode="&#xe90a;" glyph-name="DragtheWords" d="M619.748 421.839c-8.046 11.1-19.146 17.414-33.302 17.414-15.072 0-26.377-9.471-34.117-16.6h-1.324c0.815 7.128-0.306 16.397-0.306 21.285v35.644h-35.644v-164.983h29.533l5.499 14.258h2.24c8.046-14.258 19.146-15.48 33.201-15.48 14.258 0 25.562 5.398 33.811 16.294s12.425 26.479 12.425 46.337c0.001 19.352-3.971 34.73-12.017 45.83zM592.251 349.228c-3.972-6.212-9.37-9.267-16.091-9.267-8.351 0-15.072 2.749-18.943 8.351-3.869 5.601-6.518 14.868-6.518 27.7v3.565c0 11.508 2.852 19.656 6.62 24.645 3.768 4.991 10.184 7.434 18.23 7.434 6.925 0 12.526-2.953 16.6-8.86 3.972-5.907 6.111-14.767 6.111-26.58s-2.038-20.776-6.010-26.988zM710.591 339.858c6.314 0 12.119 0.814 17.517 2.546 5.398 1.629 8.963 4.278 16.091 7.944v-28.109c-7.128-3.361-10.592-5.704-16.091-7.027-5.398-1.324-12.221-1.935-20.47-1.935-37.376 0-56.114 20.572-56.114 61.614 0 20.47 5.092 36.051 15.277 46.847s24.748 16.193 43.791 16.193c13.952 0 26.377-2.749 37.376-8.147l-9.676-25.358c-5.194 2.036-9.98 3.768-14.461 5.092s-8.86 2.036-13.341 2.036c-17.11 0-25.562-12.119-25.562-36.357 0.1-23.525 8.553-35.338 25.663-35.338zM463.524 428.46c-8.554 7.027-18.026 10.49-34.218 10.49-16.804 0-32.182-3.666-46.033-10.897l10.693-22.099c12.934 5.805 23.525 8.758 33.201 8.758 12.526 0 17.618-6.111 17.618-18.331v-5.295l-19.757-0.713c-18.026-0.611-30.552-4.074-39.412-10.083-8.963-6.008-13.341-15.581-13.341-28.312 0-12.221 3.361-21.795 9.98-28.413 6.62-6.62 15.785-10.286 27.293-10.286 9.37 0 17.007 0.713 22.812 3.361s11.508 5.907 17.007 13.036h0.815l6.314-14.258h16.804v80.861c0 14.461-1.222 25.155-9.777 32.182zM444.785 362.161c0-7.231-1.222-13.036-5.704-17.414-4.582-4.379-9.676-6.518-17.313-6.518-10.592 0-15.785 4.582-15.785 13.851 0 6.415 2.342 11.305 7.027 14.359 4.685 3.156 10.693 4.888 20.165 5.194l11.61 0.407v-9.879zM788.805 506.979c5.704 0 10.388-4.685 10.388-10.387v-205.312c0-5.704-4.685-10.387-10.388-10.387h-438.835c-5.704 0-10.387 4.685-10.387 10.387v205.312c0 5.704 4.685 10.387 10.387 10.387h438.835zM788.805 532.847h-438.835c-19.96 0-36.256-16.294-36.256-36.256v-205.312c0-19.96 16.294-36.256 36.256-36.256h438.834c19.96 0 36.256 16.294 36.256 36.256v205.312c0 19.96-16.294 36.256-36.255 36.256v0zM328.074 349.532h-46.236v23.118h46.236v-23.118zM244.87 349.532h-25.053c-11.508 0-20.776 9.37-20.776 20.776v6.62h23.118v-4.278h22.812v-23.118h-0.101zM222.058 423.164h-23.118v46.236h23.118v-46.236zM222.058 515.635h-23.118v46.236h23.118v-46.236zM687.473 523.375h-23.118v46.236h23.118v-46.236zM222.058 608.108h-23.118v12.119c0 11.508 9.37 20.776 20.776 20.776h19.553v-23.118h-17.211v-9.777zM664.151 617.987h-17.211v23.118h19.553c11.508 0 20.776-9.37 20.776-20.776v-12.119h-23.118v9.777zM609.157 617.987h-46.236v23.118h46.236v-23.118zM516.685 617.987h-46.236v23.118h46.236v-23.118zM424.212 617.987h-46.236v23.118h46.236v-23.118zM331.741 617.987h-46.236v23.118h46.236v-23.118z" />
<glyph unicode="&#xe90b;" glyph-name="FacebookFeed" d="M659.968 211.2h-59.136v187.52h62.592l9.216 68.992h-71.808v44.032c0 20.608 8.576 34.56 38.272 34.56l40.704 0.256v63.872c-9.856 0.896-29.568 2.816-55.424 2.816-54.528 0-92.544-33.28-92.544-94.336v-51.2h-68.992v-68.992h68.992v-187.52h-167.68c-49.024 0-88.832 39.808-88.832 88.832v295.936c0 49.024 39.808 88.832 88.832 88.832h295.936c49.024 0 88.832-39.808 88.832-88.832v-295.936c-0.128-49.024-39.936-88.832-88.96-88.832z" />
<glyph unicode="&#xe90c;" glyph-name="FillintheBlanks" d="M520.407 443.731c-4.484-4.371-8.294-10.536-11.544-18.269-3.139-7.397-4.595-14.235-4.595-20.399s1.233-11.881 3.811-16.925c2.578-5.043 6.053-9.527 10.76-13.338s10.088-6.949 16.141-9.527c5.716-2.354 11.544-3.923 17.373-4.484s11.433 0 16.813 1.793c5.38 1.793 10.312 4.819 14.796 9.19 4.484 4.26 8.294 10.2 11.433 17.597 3.25 7.734 4.819 14.796 4.708 21.071-0.113 6.277-1.345 11.881-3.923 16.925-2.578 4.932-6.164 9.19-10.648 12.89s-9.751 6.725-15.468 9.079c-6.053 2.578-12.105 4.147-18.045 4.932s-11.657 0.337-16.925-1.345c-5.381-1.681-10.2-4.707-14.684-9.19zM779.212 640.104c-0.448 13.114-3.699 25.444-9.864 37.1-6.164 11.657-15.131 22.305-26.9 31.944s-26.116 18.045-42.816 24.995c-8.855 3.699-18.269 6.612-28.133 8.855s-19.951 3.699-30.15 4.595c-10.2 0.897-20.175 1.233-30.039 1.009s-19.167-0.897-27.909-2.13l2.354-65.009c16.813 1.121 32.841 1.233 47.86 0.561s28.246-3.363 39.679-8.182c13.002-5.38 21.408-12.553 25.219-21.297 3.811-8.742 3.699-17.821-0.224-27.124-2.578-6.053-5.38-11.209-8.631-15.244s-7.173-7.51-11.881-10.536-10.312-5.604-16.924-7.846c-6.612-2.241-14.459-4.708-23.651-7.286-10.536-2.915-19.727-6.164-27.796-9.64s-15.131-7.621-21.184-12.329c-6.164-4.708-11.433-10.088-16.028-16.141s-8.631-13.338-12.105-21.745l-7.621-18.269 65.121-27.237 6.164 14.796c2.241 5.268 4.595 9.64 7.062 13.114 2.465 3.475 5.716 6.501 9.751 9.079 3.923 2.578 8.966 4.932 15.020 7.173s13.674 4.595 22.866 7.173c12.105 3.475 22.866 7.062 32.393 10.648 9.527 3.699 18.045 8.070 25.444 13.114 7.397 5.043 14.011 11.209 19.727 18.382s10.76 15.916 15.020 26.34c5.824 14.35 8.515 28.024 8.178 41.138zM684.612 276.276h-325.046v325.046h253.423c5.492 2.241 11.32 4.035 17.485 5.828 8.742 2.465 16.252 4.819 22.305 6.949 4.932 1.682 9.079 3.699 12.329 5.716 2.578 1.569 4.708 3.475 6.388 5.604 1.906 2.354 3.811 5.492 5.492 9.64 0 0.113 0 0 0.113 0h-351.162v-392.297h392.297v278.643c-10.088-3.811-21.297-7.51-33.626-11.096v-234.033z" />
<glyph unicode="&#xe90d;" glyph-name="FindtheHotspot" d="M331.781 611.159c-31.215 0-56.541-25.326-56.541-56.541s25.327-56.541 56.541-56.541c31.215 0 56.541 25.326 56.541 56.541s-25.326 56.541-56.541 56.541zM206.080 634.93v-377.21c0-24.008 19.462-43.47 43.47-43.47h524.9c24.008 0 43.47 19.462 43.47 43.47v377.21c0 24.008-19.462 43.47-43.47 43.47h-524.9c-24.008 0-43.47-19.462-43.47-43.47zM783.174 346.854c-1.737-2.5-3.564-4.932-5.478-7.291v0c-22.332-27.521-56.411-45.144-94.532-45.144-27.709 0-54.828 9.563-76.356 26.926-28.82 23.245-45.35 57.791-45.35 94.779 0 62.186 46.885 113.622 107.162 120.833l-45.23 45.516-197.757-197.896-61.568 61.748-117.76-118.006v289.934c0 11.003 8.919 19.923 19.923 19.923h491.547c11.003 0 19.923-8.919 19.923-19.923v-125.568c16.982-20.927 27.174-47.574 27.174-76.561-0.001-25.72-8.028-49.596-21.697-69.271zM777.696 445.569c-11.854 37.976-46.017 66.172-87.075 69.248-2.465 0.184-4.946 0.31-7.457 0.31-54.591 0-99.003-44.412-99.003-99.003 0-30.089 13.45-58.194 36.901-77.108 17.759-14.323 39.232-21.894 62.102-21.894 44.342 0 81.967 29.302 94.532 69.559v0c2.904 9.306 4.471 19.195 4.471 29.444 0 2.28-0.106 4.534-0.259 6.776-0.532 7.837-1.953 15.433-4.212 22.669v0zM738.45 434.651l-63.52-63.52c-1.33-1.33-3.176-2.068-5.023-2.068s-3.693 0.739-5.023 2.068l-36.782 36.782c-1.33 1.33-2.068 3.176-2.068 5.023s0.739 3.693 2.068 5.023l10.045 10.045c1.33 1.33 3.176 2.068 5.023 2.068s3.693-0.739 5.023-2.068l21.715-21.788 48.452 48.526c1.33 1.33 3.176 2.068 5.023 2.068s3.693-0.739 5.023-2.068l10.045-10.045c1.33-1.33 2.068-3.176 2.068-5.023s-0.74-3.693-2.070-5.023z" />
<glyph unicode="&#xe90e;" glyph-name="Flashcards" d="M722.478 631.050l-223.013 80.952c-15.672 5.751-32.927-2.445-38.679-18.117l-10.927-30.195h103.383c27.75 0 50.757-22.431 50.757-50.181v-397.857c0 0.431 0.143 0.719 0.288 1.006l136.452 375.713c5.608 15.672-2.588 32.927-18.26 38.679zM579.553 611.926c0 16.68-13.516 30.195-30.195 30.195h-237.248c-16.68 0-30.195-13.516-30.195-30.195v-399.726c0-16.68 13.516-30.195 30.195-30.195h237.248c16.68 0 30.195 13.516 30.195 30.195v399.726zM376.239 302.497l63.553 108.128h-63.553l53.632 112.154h53.057l-53.201-76.207h72.612l-126.1-144.074z" />
<glyph unicode="&#xe90f;" glyph-name="GuesstheAnswer" d="M404.352 407.68c45.056 44.416 86.144 84.864 127.872 125.952 23.936-23.552 47.872-46.848 71.296-70.656 2.176-2.304 1.408-8.704 0.384-12.8-6.272-23.168-13.184-46.336-19.456-69.504-4.224-15.488 11.776-10.496 15.232-13.952-10.624-12.416-20.608-24.448-30.976-35.968-2.176-2.432-6.144-4.736-9.216-4.736-88.576-0.256-177.28-0.256-267.136-0.256-2.048 23.808-6.144 45.312 15.872 63.488 21.12 17.408 39.168 38.528 61.44 60.8 11.648-14.464 22.784-27.904 34.688-42.368zM568.448 263.040c-52.224 0-102.912 0-153.6 0-49.024 0-98.176-0.256-147.2 0.128-23.168 0.128-39.168 15.104-39.168 37.888-0.384 99.2-0.384 198.4 0 297.728 0.128 24.192 16.896 40.064 41.344 40.064 101.376 0.256 202.88 0.128 301.056 0.128-1.92-8.704-3.968-17.792-6.528-29.312-4.992 0-12.032 0-18.944 0-87.68 0-175.232 0-262.912 0-23.424 0-24.832-1.28-24.832-23.808 0-90.368 0-180.864 0-271.232 0-22.528 0.896-23.424 23.168-23.424 84.864 0 169.728 0.128 254.72 0 31.744-0.256 23.552 3.072 32.896-28.16zM610.944 559.232c-4.224 16.768-8.576 31.616-11.264 46.592-0.64 3.712 3.072 11.136 6.272 12.032 47.744 14.080 95.616 17.408 141.44-6.656 57.216-29.952 65.408-104.704 16.384-147.072-8.704-7.552-18.688-13.696-28.544-19.584-26.24-15.616-57.984-25.6-57.728-65.664-22.016 4.224-41.216 7.936-60.8 11.776 1.024 35.328 16 60.928 45.44 78.208 12.288 7.296 25.6 13.312 36.864 21.888 8.448 6.4 16.896 14.72 21.504 24.192 12.416 25.728 0.64 49.408-27.776 52.224-20.864 2.048-42.496-2.176-63.744-3.968-5.376-0.384-10.624-2.304-18.048-3.968zM382.336 529.28c0.128-25.6-18.944-45.44-44.288-45.952-25.728-0.512-46.848 19.712-46.976 45.312-0.128 25.088 21.504 46.848 46.336 46.464 24.704-0.384 44.8-20.736 44.928-45.824zM630.272 341.12c28.288-0.256 46.208-16.384 45.568-40.704-0.64-27.264-16.128-43.776-40.832-43.52-27.008 0.256-46.72 17.792-45.952 40.96 1.152 27.392 16.384 43.52 41.216 43.264z" />
<glyph unicode="&#xe910;" glyph-name="IframeEmbedder" d="M461.696 226.944c-7.808 2.432-16.768 4.224-24.832 7.936-10.624 4.864-11.008 13.952-7.936 24.192 20.864 71.808 41.472 143.744 62.208 215.552 16.768 58.24 33.536 116.48 50.304 174.72 5.632 19.712 12.288 23.040 33.92 17.024 20.864-5.888 24.704-11.648 18.944-31.36-37.376-130.048-75.008-260.224-112.384-390.272-2.944-10.24-8.192-16.896-20.224-17.792zM291.456 449.792c20.736-20.48 38.528-38.144 56.32-55.808 19.84-19.712 39.68-39.424 59.392-59.392 11.008-11.136 10.88-20.608 0-31.872-3.328-3.456-6.528-6.784-10.112-9.984-9.728-8.96-19.712-9.472-28.8-0.384-47.104 46.848-94.080 93.696-140.928 140.8-11.008 11.136-10.88 19.456 0.384 30.72 46.464 46.848 93.056 93.44 139.904 139.904 9.728 9.728 19.712 9.344 29.824-0.128 2.432-2.304 4.736-4.736 7.040-7.040 14.592-14.72 14.72-22.528 0.384-36.992-32.896-32.896-65.664-65.792-98.688-98.56-3.712-3.584-8.32-6.4-14.72-11.264zM732.032 447.104c-22.656 22.656-42.752 42.624-62.848 62.592-17.408 17.408-34.944 34.816-52.352 52.352-11.008 11.136-10.752 20.48 0.128 31.872 3.328 3.456 6.528 6.784 10.112 9.984 9.728 8.832 19.712 9.344 28.8 0.256 47.104-46.848 94.080-93.696 140.928-140.8 11.008-11.008 10.752-19.456-0.384-30.72-46.464-46.72-93.056-93.44-139.904-139.904-9.728-9.728-19.712-9.344-29.824 0.256-2.816 2.56-5.376 5.376-8.064 8.064-13.056 13.312-13.184 21.888-0.256 34.944 33.152 33.28 66.304 66.432 99.584 99.584 3.712 3.712 8.064 6.656 14.080 11.52z" />
<glyph unicode="&#xe911;" glyph-name="ImageHotspots" d="M387.84 496.512c16 10.496 26.624 28.544 26.624 49.152 0 32.384-26.24 58.624-58.624 58.624s-58.624-26.24-58.624-58.624c0-2.944 0.256-5.888 0.64-8.832 5.76 1.28 11.776 2.048 18.048 2.048 30.976 0 57.856-17.152 71.936-42.368zM698.624 399.488c-45.44 0-82.176 36.864-82.176 82.304 0 16.384 4.864 31.616 13.056 44.416l-29.184 29.184-156.416-156.416-46.464 46.464c-5.248-38.4-36.864-68.352-76.032-71.040l-24.448-24.32v-59.52h149.248c-3.328 8.96-5.12 18.944-5.12 29.056 0 45.44 36.864 82.56 82.304 82.56s82.304-37.12 82.304-82.688c0-10.112-1.792-19.968-5.12-28.928h126.464v114.048c-8.96-3.328-18.304-5.12-28.416-5.12zM806.4 633.344c0 27.008-21.888 48.896-48.896 48.896h-489.728c-27.008 0-48.896-21.888-48.896-48.896v-370.688c0-27.008 21.888-48.896 48.896-48.896h489.728c27.008 0 48.896 21.888 48.896 48.896v370.688zM766.72 434.816v-172.8c0-5.248-4.736-9.856-9.984-9.856h-186.368c-13.312-8.96-29.44-14.72-46.848-14.72s-33.536 5.76-46.848 14.72h-208.768c-5.248 0-9.344 4.736-9.344 9.856v135.936c-16.64 14.976-24.576 35.712-24.576 58.624s7.936 43.648 24.576 58.624v118.528c0 5.248 4.096 8.832 9.344 8.832h488.96c5.248 0 9.984-3.712 9.984-8.832v-104.96c8.96-13.312 14.72-29.44 14.72-46.848s-5.888-33.792-14.848-47.104zM753.408 513.28c5.632-9.6 8.448-20.096 8.448-31.616s-2.816-21.888-8.448-31.616c-5.632-9.6-13.312-17.28-22.912-22.912s-20.096-8.448-31.616-8.448c-11.392 0-21.888 2.816-31.616 8.448-9.6 5.632-17.28 13.312-22.912 22.912s-8.448 20.096-8.448 31.616 2.816 21.888 8.448 31.616c5.632 9.6 13.312 17.28 22.912 22.912s20.096 8.448 31.616 8.448c11.392 0 21.888-2.816 31.616-8.448 9.6-5.632 17.28-13.184 22.912-22.912zM721.28 520.32c-6.784 3.968-14.208 6.016-22.4 6.016-8.064 0-15.488-2.048-22.4-6.016-6.784-3.968-12.288-9.344-16.256-16.256-3.968-6.784-6.016-14.336-6.016-22.4s2.048-15.488 6.016-22.4c3.968-6.784 9.344-12.288 16.256-16.256 6.784-3.968 14.336-6.016 22.4-6.016s15.488 2.048 22.4 6.016c6.784 3.968 12.288 9.344 16.256 16.256 3.968 6.784 6.016 14.336 6.016 22.4s-2.048 15.488-6.016 22.4c-3.968 6.912-9.344 12.288-16.256 16.256zM713.728 496.64c4.096-4.096 6.144-9.088 6.144-14.848s-2.048-10.752-6.144-14.848-9.088-6.144-14.848-6.144-10.752 2.048-14.848 6.144c-4.096 4.096-6.144 9.088-6.144 14.848s2.048 10.752 6.144 14.848 9.088 6.144 14.848 6.144c5.888 0 10.752-2.048 14.848-6.144zM577.92 350.464c5.632-9.6 8.448-20.096 8.448-31.616s-2.816-21.888-8.448-31.616c-5.632-9.6-13.312-17.28-22.912-22.912s-20.096-8.448-31.616-8.448c-11.392 0-21.888 2.816-31.616 8.448-9.6 5.632-17.28 13.312-22.912 22.912s-8.448 20.096-8.448 31.616 2.816 21.888 8.448 31.616c5.632 9.6 13.312 17.28 22.912 22.912s20.096 8.448 31.616 8.448c11.392 0 21.888-2.816 31.616-8.448 9.6-5.632 17.28-13.312 22.912-22.912zM545.792 357.504c-6.784 3.968-14.208 6.016-22.4 6.016-8.064 0-15.488-2.048-22.4-6.016-6.784-3.968-12.288-9.344-16.256-16.256-3.968-6.784-6.016-14.336-6.016-22.4s2.048-15.488 6.016-22.4c3.968-6.784 9.344-12.288 16.256-16.256 6.784-3.968 14.336-6.016 22.4-6.016s15.488 2.048 22.4 6.016c6.784 3.968 12.288 9.344 16.256 16.256 3.968 6.784 6.016 14.336 6.016 22.4s-2.048 15.488-6.016 22.4c-3.968 6.784-9.344 12.288-16.256 16.256zM538.24 333.696c4.096-4.096 6.144-9.088 6.144-14.848s-2.048-10.752-6.144-14.848c-4.096-4.096-9.088-6.144-14.848-6.144s-10.752 2.048-14.848 6.144-6.144 9.088-6.144 14.848 2.048 10.752 6.144 14.848c4.096 4.096 9.088 6.144 14.848 6.144 5.888 0 10.752-2.048 14.848-6.144zM368.64 487.552c5.632-9.6 8.448-20.096 8.448-31.616s-2.816-21.888-8.448-31.616c-5.632-9.6-13.312-17.28-22.912-22.912s-20.096-8.448-31.616-8.448c-11.392 0-21.888 2.816-31.616 8.448-9.6 5.632-17.28 13.312-22.912 22.912s-8.448 20.096-8.448 31.616 2.816 21.888 8.448 31.616c5.632 9.6 13.312 17.28 22.912 22.912s20.096 8.448 31.616 8.448c11.392 0 21.888-2.816 31.616-8.448 9.6-5.632 17.28-13.312 22.912-22.912zM336.512 494.592c-6.784 3.968-14.208 6.016-22.4 6.016-8.064 0-15.488-2.048-22.4-6.016-6.784-3.968-12.288-9.344-16.256-16.256-3.968-6.784-6.016-14.336-6.016-22.4s2.048-15.488 6.016-22.4c3.968-6.784 9.344-12.288 16.256-16.256 6.784-3.968 14.336-6.016 22.4-6.016s15.488 2.048 22.4 6.016c6.784 3.968 12.288 9.344 16.256 16.256 3.968 6.784 6.016 14.336 6.016 22.4s-2.048 15.488-6.016 22.4c-4.096 6.784-9.472 12.16-16.256 16.256zM328.96 470.784c4.096-4.096 6.144-9.088 6.144-14.848s-2.048-10.752-6.144-14.848c-4.096-4.096-9.088-6.144-14.848-6.144s-10.752 2.048-14.848 6.144c-4.096 4.096-6.144 9.088-6.144 14.848s2.048 10.752 6.144 14.848c4.096 4.096 9.088 6.144 14.848 6.144 5.888 0 10.752-2.048 14.848-6.144z" />
<glyph unicode="&#xe912;" glyph-name="InteractiveVideo" d="M799.872 332.288c-34.176 34.176-42.624 92.544-80.384 130.432-22.016 22.016-45.824 27.904-69.504 4.352-3.712-3.712-7.040-7.808-9.984-11.904-12.672 3.712-28.288-2.944-37.248-11.904-4.736-4.736-8.192-10.496-9.984-17.024-12.928 0.384-24.448-3.712-33.536-12.928-6.272-6.272-12.672-18.176-13.312-26.88l-64.64 64.512c-13.44 13.44-36.48 13.44-49.92 0-13.312-13.312-13.056-36.864 0-49.92l112.512-112.512c-12.288-12.288-43.776-6.272-68.736-31.232-18.688-18.688-10.368-39.68 6.272-56.192 5.504-5.504 38.016 7.168 44.672 9.6 6.656 1.92 13.312 3.968 19.968 5.504 16.768 3.968 33.152 5.504 50.176 6.4 26.752 1.792 58.24 5.504 78.848-15.232l6.272-6.272 124.928 124.928-6.4 6.272zM452.992 479.744c13.824 0 26.752-5.248 36.352-14.848l4.224-4.224 29.696 17.408c5.248 2.944 8.448 8.448 8.448 14.592s-3.2 11.648-8.448 14.592l-144.128 84.864c-4.992 3.2-11.776 3.2-17.152 0.256-5.248-3.2-8.576-8.704-8.576-14.848v-169.6c0-6.144 3.328-11.648 8.576-14.848 2.688-1.28 5.632-2.176 8.576-2.176s5.888 0.768 8.576 2.432l26.752 15.744c-2.432 6.016-3.712 12.672-3.712 19.456 0 13.824 5.248 27.136 14.592 36.48 9.472 9.472 22.272 14.72 36.224 14.72zM456.192 352.768c-11.136-2.816-22.784-4.224-34.816-4.224-79.488 0-144.128 64.64-144.128 144.128s64.64 144.128 144.128 144.128 144.128-64.512 144.128-144c0-20.736-4.352-40.448-12.288-58.24 7.552 5.12 16 8.448 25.216 9.728 2.56 4.736 5.76 9.088 9.6 12.928 9.6 9.6 23.040 16.128 36.096 17.408 0.512 6.016 0.768 12.032 0.768 18.176 0 112.384-91.136 203.52-203.52 203.52s-203.52-91.136-203.52-203.52 91.136-203.52 203.52-203.52c28.928 0 56.448 6.016 81.408 17.024l-46.592 46.464z" />
<glyph unicode="&#xe913;" glyph-name="MarktheWords" d="M528.422 474.6c-12.722 0-20.933-3.932-26.716-11.681s-8.096-20.701-8.096-38.628v-5.551c0-20.239 1.966-34.696 7.98-43.369 6.013-8.79 15.035-13.069 27.988-13.069 10.524 0 18.62 4.858 24.865 14.572s9.252 23.825 9.252 42.328c0 18.505-3.238 32.383-9.484 41.635-6.359 9.138-14.918 13.764-25.789 13.764zM628.924 638.826h-217.426c-37.124 0-68.466-30.764-68.466-67.887v-235.121c0-37.124 31.342-78.643 68.466-78.643h217.426c37.124 0 66.963 30.301 66.963 67.425v246.339c0 37.124-29.838 67.887-66.963 67.887zM596.426 346.226c-12.954-17.001-30.532-24.865-52.852-24.865-22.089 0-39.437 2.775-51.928 24.75h-3.585l-8.558-21.974h-41.519v258.020h55.514v-57.248c0-7.749-2.66-20.239-3.932-31.804h1.966c12.028 11.565 29.723 25.212 53.316 25.212 22.205 0 39.553-10.062 52.159-27.293 12.607-17.348 18.852-41.751 18.852-71.936-0.001-31.11-6.478-55.745-19.43-72.861zM827.383 364.614c9.715 0 18.388 1.272 26.716 3.932 8.326 2.545 14.109 6.707 24.518 12.143v-43.37c-10.409-5.204-16.076-8.79-24.403-10.756s-18.735-3.007-31.457-3.007c-57.827 0-86.624 31.689-86.624 95.182 0 31.572 7.864 55.629 23.593 72.283s38.281 24.98 67.657 24.98c21.512 0 40.709-4.164 57.827-12.607l-14.92-39.206c-7.98 3.238-15.382 5.898-22.321 7.864-6.824 2.081-13.763 3.123-20.586 3.123-26.369 0-39.553-18.735-39.553-56.091 0.116-36.314 13.185-54.472 39.553-54.472zM278.961 513.228c-13.3 10.871-27.525 16.307-52.39 16.307-26.021 0-49.499-5.551-70.895-16.769l16.654-34.234c20.008 9.021 36.315 13.416 51.118 13.416 19.314 0 27.178-9.368 27.178-28.219v-8.096l-30.417-1.041c-27.757-1.041-47.071-6.245-60.948-15.613-13.763-9.368-20.471-24.055-20.471-43.717 0-18.852 5.204-33.655 15.497-43.832 10.177-10.177 24.287-15.844 42.098-15.844 14.456 0 26.253 1.272 35.274 5.436s17.81 9.946 26.369 20.355h1.388l9.83-20.818h24.172v123.169c0 22.207-1.156 38.629-14.456 49.5zM250.627 410.76c0-11.218-1.734-20.123-8.675-26.947-7.055-6.707-14.92-10.177-26.716-10.177-16.422 0-24.403 7.171-24.403 21.395 0 9.946 3.7 17.348 10.871 22.205s16.422 7.517 31.11 7.98l17.81 0.809v-15.265z" />
<glyph unicode="&#xe914;" glyph-name="MemoryGame" d="M221.169 731.286h167.049v-167.049h-167.049v167.049zM427.702 731.286h167.049v-167.049h-167.049v167.049zM427.702 523.74h167.049v-167.049h-167.049v167.049zM634.235 523.74h167.049v-167.049h-167.049v167.049zM221.169 320.243h167.049v-167.049h-167.049v167.049zM427.702 320.243h167.049v-167.049h-167.049v167.049zM634.235 320.243h167.049v-167.049h-167.049v167.049zM220.156 522.728v-167.049h167.049v167.049h-167.049zM366.957 375.927h-126.552v126.552h126.552v-126.552zM277.56 426.852l-5.164-29.967c0-0.404-0.101-0.81-0.101-1.215 0-1.62 0.81-3.037 2.531-3.037 0.911 0 1.62 0.303 2.429 0.709l26.93 14.173 26.93-14.173c0.709-0.404 1.62-0.709 2.429-0.709 1.722 0 2.429 1.518 2.429 3.037 0 0.404 0 0.81-0.101 1.215l-5.164 29.967 21.766 21.16c0.81 0.81 1.62 1.823 1.417 2.835 0 1.823-1.924 2.531-3.341 2.734l-30.068 4.353-13.466 27.235c-0.506 1.114-1.518 2.429-2.936 2.429-1.417 0-2.429-1.316-2.936-2.429l-13.466-27.235-30.068-4.353c-1.518-0.202-3.341-0.911-3.341-2.734 0-1.012 0.81-2.025 1.518-2.835l21.772-21.16zM633.222 730.273v-167.049h167.049v167.049h-167.049zM780.023 583.473h-126.552v126.552h126.552v-126.552zM690.627 634.397l-5.164-29.967c0-0.404-0.101-0.81-0.101-1.215 0-1.62 0.81-3.037 2.531-3.037 0.911 0 1.62 0.303 2.429 0.709l26.93 14.173 26.93-14.173c0.709-0.404 1.62-0.709 2.429-0.709 1.722 0 2.429 1.518 2.429 3.037 0 0.404 0 0.81-0.101 1.215l-5.164 29.967 21.766 21.16c0.81 0.81 1.62 1.823 1.417 2.835 0 1.823-1.924 2.531-3.341 2.734l-30.068 4.353-13.466 27.235c-0.506 1.114-1.518 2.429-2.936 2.429s-2.429-1.316-2.936-2.429l-13.466-27.235-30.068-4.353c-1.518-0.202-3.341-0.911-3.341-2.734 0-1.012 0.81-2.025 1.518-2.835l21.772-21.16z" />
<glyph unicode="&#xe915;" glyph-name="MultipleChoice" d="M793.133 668.617h-446.386c-15.548 0-28.087-12.539-28.087-28.087v-20.063c0-15.548 12.539-28.087 28.087-28.087h446.386c15.548 0 28.087 12.539 28.087 28.087v20.063c0 15.548-12.539 28.087-28.087 28.087zM218.248 680.454c-27.686 0-50.156-22.469-50.156-50.156s22.469-50.156 50.156-50.156c27.686 0 50.156 22.47 50.156 50.156s-22.469 50.156-50.156 50.156zM218.248 595.19c-19.36 0-35.109 15.749-35.109 35.109s15.749 35.109 35.109 35.109 35.109-15.749 35.109-35.109c0-19.36-15.749-35.109-35.109-35.109zM793.133 495.078h-446.386c-15.548 0-28.087-12.539-28.087-28.087v-20.063c0-15.548 12.539-28.087 28.087-28.087h446.386c15.548 0 28.087 12.539 28.087 28.087v20.063c0 15.548-12.539 28.087-28.087 28.087zM268.403 456.96c0-27.7-22.455-50.156-50.156-50.156s-50.156 22.455-50.156 50.156c0 27.7 22.455 50.156 50.156 50.156s50.156-22.455 50.156-50.156zM793.133 321.54h-446.386c-15.548 0-28.087-12.539-28.087-28.087v-20.063c0-15.548 12.539-28.087 28.087-28.087h446.386c15.548 0 28.087 12.539 28.087 28.087v20.063c0 15.548-12.539 28.087-28.087 28.087zM218.248 333.778c-27.686 0-50.156-22.47-50.156-50.156s22.469-50.156 50.156-50.156 50.156 22.47 50.156 50.156c0 27.685-22.469 50.156-50.156 50.156zM218.248 248.512c-19.36 0-35.109 15.749-35.109 35.109s15.749 35.109 35.109 35.109 35.109-15.749 35.109-35.109c0-19.36-15.749-35.109-35.109-35.109z" />
<glyph unicode="&#xe916;" glyph-name="Quiz" d="M273.64 500.269l-63.465-41.462 298.762-193.088 305.348 199.973-63.315 40.863-34.276-22.451 29.037-18.711-236.943-155.068-230.060 148.632 29.188 19.159zM716.694 362.563l29.037-18.71-236.943-155.069-230.060 148.634 29.188 19.159-34.276 22.152-63.465-41.46 298.762-193.238 305.348 199.973-63.315 41.012zM811.169 577.907l-298.857 193.149-305.309-199.944 298.858-193.148 305.308 199.942zM275.613 571.32l236.833 155.099 230.112-148.721-236.832-155.099-230.113 148.721zM522.258 523.619c-2.545 1.496-5.389 2.694-8.681 3.293-3.293 0.749-6.735 1.048-10.328 1.048-3.741 0-7.334-0.449-10.778-1.048-3.443-0.749-6.286-1.796-8.831-3.293s-4.49-3.443-5.838-5.838c-1.347-2.545-2.095-5.539-2.095-8.98 0-3.293 0.749-6.286 2.095-8.681s3.293-4.49 5.838-5.987c2.545-1.646 5.389-2.694 8.831-3.443 3.293-0.749 6.885-1.048 10.778-1.048 3.592 0 7.035 0.3 10.328 1.048s6.136 1.946 8.681 3.443c2.545 1.646 4.49 3.593 5.988 5.987 1.496 2.395 2.245 5.389 2.245 8.681 0 3.593-0.749 6.586-2.245 8.98-1.498 2.396-3.443 4.342-5.988 5.838zM573 635.73c-3.144 4.94-7.634 9.28-13.62 12.723-5.988 3.593-13.172 6.286-21.704 8.083s-18.111 2.694-28.739 2.694c-5.688 0-11.375-0.3-17.213-1.048s-11.525-1.796-17.213-3.144c-5.688-1.347-11.226-2.844-16.465-4.49-5.389-1.796-10.179-3.592-14.669-5.389l15.866-24.847c8.98 3.144 17.513 5.688 25.745 7.933s16.015 3.293 23.2 3.293c8.233 0 14.369-1.496 18.41-4.191s5.988-6.286 5.988-10.478c0-2.844-0.3-5.239-1.197-7.334-0.749-2.095-2.245-4.041-4.041-5.988-1.796-1.946-4.34-3.891-7.334-5.838s-6.735-4.191-11.076-6.586c-5.089-2.844-9.28-5.539-12.873-8.233s-6.436-5.389-8.681-8.233c-2.245-2.844-3.891-5.688-4.94-8.831-1.048-2.994-1.646-6.586-1.646-10.328v-8.233h41.312v6.735c0 2.395 0.3 4.49 0.899 6.286 0.449 1.796 1.646 3.443 3.144 5.089 1.496 1.646 3.741 3.443 6.436 5.239s6.286 4.041 10.628 6.436c5.838 3.293 10.776 6.436 15.118 9.43 4.34 2.844 7.933 5.988 10.778 9.13 2.844 3.144 4.94 6.586 6.436 10.328 1.496 3.592 2.245 7.933 2.245 12.573-0.003 6.438-1.649 12.276-4.792 17.216z" />
<glyph unicode="&#xe917;" glyph-name="SingleChoice" d="M392.512 674.213l-99.662-99.662c-2.038-2.038-4.993-3.261-7.846-3.261s-5.809 1.121-7.846 3.261l-57.678 57.678c-2.038 2.14-3.261 4.993-3.261 7.846s1.121 5.809 3.261 7.846l15.795 15.795c2.038 2.038 4.993 3.261 7.846 3.261s5.809-1.121 7.846-3.261l34.035-34.138 76.020 76.122c2.038 2.038 4.993 3.261 7.846 3.261s5.809-1.121 7.846-3.261l15.795-15.795c2.038-2.038 3.261-4.993 3.261-7.846s-1.221-5.708-3.26-7.846zM821.119 632.228c0-11.108-8.968-20.177-20.177-20.177h-340.765c-11.108 0-20.177 8.968-20.177 20.177v14.776c0 11.108 8.968 20.177 20.177 20.177h340.867c11.108 0 20.177-8.968 20.177-20.177v-14.776h-0.101zM821.119 442.688c0-11.108-8.968-20.177-20.177-20.177h-340.765c-11.108 0-20.177 8.968-20.177 20.177v14.776c0 11.108 8.968 20.177 20.177 20.177h340.867c11.108 0 20.177-8.968 20.177-20.177v-14.776h-0.101zM365.202 397.341l-16.611-16.611c-2.241-2.241-5.299-3.465-8.255-3.465-3.057 0-6.115 1.222-8.255 3.465l-35.869 35.869-35.972-35.869c-2.241-2.241-5.299-3.465-8.255-3.465-3.057 0-6.115 1.222-8.255 3.465l-16.712 16.611c-2.241 2.241-3.465 5.299-3.465 8.255 0 3.057 1.222 6.115 3.465 8.255l35.869 35.869-35.869 35.972c-2.241 2.241-3.465 5.299-3.465 8.255 0 3.057 1.222 6.115 3.465 8.255l16.611 16.611c2.241 2.241 5.299 3.465 8.255 3.465 3.057 0 6.115-1.222 8.255-3.465l35.869-35.869 35.869 35.869c2.241 2.241 5.299 3.465 8.255 3.465 3.057 0 6.115-1.222 8.255-3.465l16.611-16.611c2.241-2.241 3.465-5.299 3.465-8.255 0-3.057-1.222-6.115-3.465-8.255l-35.869-35.869 35.869-35.869c2.241-2.241 3.465-5.299 3.465-8.255 0.204-3.059-1.019-6.116-3.261-8.357zM821.119 252.128c0-11.108-8.968-20.177-20.177-20.177h-340.765c-11.108 0-20.177 8.968-20.177 20.177v14.776c0 11.108 8.968 20.177 20.177 20.177h340.867c11.108 0 20.177-8.968 20.177-20.177v-14.776h-0.101zM365.202 206.985l-16.611-16.611c-2.241-2.241-5.299-3.465-8.255-3.465-3.057 0-6.115 1.222-8.255 3.465l-35.869 35.869-35.869-35.869c-2.241-2.241-5.299-3.465-8.255-3.465-3.057 0-6.115 1.222-8.255 3.465l-16.814 16.611c-2.241 2.241-3.465 5.299-3.465 8.255 0 3.057 1.222 6.115 3.465 8.255l35.869 35.869-35.869 36.074c-2.241 2.241-3.465 5.299-3.465 8.255 0 3.057 1.222 6.115 3.465 8.255l16.611 16.611c2.241 2.241 5.299 3.465 8.255 3.465 3.057 0 6.115-1.222 8.255-3.465l35.869-35.869 35.869 35.869c2.241 2.241 5.299 3.465 8.255 3.465 3.057 0 6.115-1.222 8.255-3.465l16.611-16.611c2.241-2.241 3.465-5.299 3.465-8.255 0-3.057-1.222-6.115-3.465-8.255l-35.869-35.869 35.869-35.869c2.241-2.241 3.465-5.299 3.465-8.255 0.204-3.16-1.019-6.217-3.261-8.46z" />
<glyph unicode="&#xe918;" glyph-name="Summary" d="M325.002 341.578c-1.673 1.765-3.996 2.694-6.412 2.694-2.323 0-4.74-1.023-6.413-2.694l-62.17-62.263-27.878 27.972c-1.673 1.765-3.996 2.694-6.413 2.694-2.323 0-4.74-1.023-6.412-2.694l-12.918-12.918c-1.765-1.673-2.694-4.090-2.694-6.413s1.023-4.74 2.694-6.413l47.209-47.209c1.673-1.765 3.996-2.694 6.412-2.694 2.323 0 4.74 1.023 6.413 2.694l12.918 12.918 68.676 68.582c1.673 1.765 2.694 4.088 2.602 6.413 0 2.323-1.023 4.74-2.694 6.413l-12.92 12.918zM325.002 501.603c-1.673 1.765-3.996 2.694-6.412 2.694-2.323 0-4.74-1.023-6.413-2.694l-62.17-62.263-27.878 27.972c-1.673 1.765-3.996 2.694-6.413 2.694-2.323 0-4.74-1.023-6.412-2.694l-12.918-12.918c-1.765-1.673-2.694-4.088-2.694-6.413s1.023-4.74 2.694-6.412l47.209-47.209c1.673-1.765 3.996-2.694 6.413-2.694 2.323 0 4.74 1.023 6.412 2.694l81.592 81.594c1.673 1.673 2.694 3.996 2.602 6.319 0 2.323-1.023 4.74-2.694 6.412l-12.919 12.918zM325.002 661.536c-1.673 1.765-3.996 2.694-6.412 2.694-2.323 0-4.74-1.023-6.413-2.694l-62.17-62.263-27.878 27.972c-1.673 1.765-3.996 2.694-6.413 2.694-2.323 0-4.74-1.023-6.412-2.694l-12.918-12.918c-1.765-1.673-2.694-4.088-2.694-6.412s1.023-4.74 2.694-6.413l47.209-47.209c1.673-1.765 3.996-2.694 6.413-2.694 2.323 0 4.74 1.023 6.412 2.694l81.592 81.592c1.673 1.673 2.694 4.088 2.602 6.319 0 2.323-1.023 4.74-2.694 6.413l-12.919 12.918zM804.8 642.205h-413.539c-14.404 0-26.020-11.616-26.020-26.020v-18.586c0-14.404 11.616-26.020 26.020-26.020h413.539c14.404 0 26.020 11.616 26.020 26.020v18.586c0 14.404-11.616 26.020-26.020 26.020zM804.8 481.437h-413.539c-14.404 0-26.020-11.616-26.020-26.020v-18.586c0-14.404 11.616-26.020 26.020-26.020h413.539c14.404 0 26.020 11.616 26.020 26.020v18.586c0 14.404-11.616 26.020-26.020 26.020zM804.8 320.668h-413.539c-14.404 0-26.020-11.616-26.020-26.020v-18.586c0-14.404 11.616-26.020 26.020-26.020h413.539c14.404 0 26.020 11.616 26.020 26.020v18.586c0 14.404-11.616 26.020-26.020 26.020z" />
<glyph unicode="&#xe919;" glyph-name="Timeline" d="M585.088 422.4l39.936-39.936c9.344-9.344 24.832-9.344 34.176 0l39.936 39.936h38.528c13.312 0 24.192 10.368 24.192 23.68s-10.88 23.68-24.192 23.68h-37.12l-41.344 41.344c-9.344 9.344-24.832 9.344-34.176 0l-41.344-41.344h-272.64v85.76h128.768l40.064-40.064c9.344-9.344 24.832-9.344 34.176 0l40.064 40.064h183.552c13.312 0 24.192 10.368 24.192 23.68s-10.88 23.68-24.192 23.68h-182.4l-41.216 41.216c-9.344 9.344-24.832 9.344-34.176 0l-41.216-41.216h-127.616v61.568c0 13.312-11.008 24.192-24.32 24.192s-24.32-10.88-24.32-24.192v-432.896c0-13.312 11.008-24.192 24.32-24.192s24.32 10.88 24.32 24.192v60.288h22.528l39.936-39.936c9.344-9.344 24.832-9.344 34.176 0l39.936 39.936h290.048c13.312 0 24.192 10.368 24.192 23.68s-10.88 23.68-24.192 23.68h-288.64l-41.344 41.344c-9.344 9.344-24.832 9.344-34.176 0l-41.344-41.344h-21.12v83.2h274.048z" />
<glyph unicode="&#xe91a;" glyph-name="TwitterUserFeed" d="M712.064 550.528c0.384-4.48 0.384-8.96 0.384-13.44 0-136.448-103.808-293.632-293.632-293.632-58.496 0-112.768 16.896-158.464 46.336 8.32-0.896 16.256-1.28 24.96-1.28 48.256 0 92.672 16.256 128.128 44.16-45.312 0.896-83.456 30.72-96.512 71.552 6.4-1.024 12.8-1.664 19.456-1.664 9.216 0 18.56 1.28 27.136 3.456-47.36 9.6-82.816 51.072-82.816 101.248 0 0.256 0 0.896 0 1.28 13.696-7.68 29.696-12.416 46.592-13.056-27.776 18.56-46.080 50.176-46.080 85.888 0 19.2 5.12 36.736 14.080 52.096 50.816-62.592 127.232-103.552 212.736-108.032-1.536 7.68-2.56 15.616-2.56 23.68 0 56.832 45.952 103.168 103.168 103.168 29.696 0 56.576-12.416 75.392-32.64 23.296 4.48 45.696 13.056 65.536 24.96-7.68-23.936-23.936-44.032-45.312-56.832 20.736 2.176 40.96 7.936 59.392 16-13.952-20.352-31.488-38.528-51.584-53.248z" />
<glyph unicode="&#xe91b;" glyph-name="ImpressivePresentation" d="M640.054 516.029v-98.918l-56.964 4.909v-179.967l240.393-68.351v357.179l-183.429-14.852zM629.951 289.8c-1.496-0.749-3.087-1.029-4.771-0.749-6.735 1.029-12.16 10.102-12.16 20.392s5.425 17.96 12.16 17.117c1.683-0.187 3.274-0.936 4.771-2.058 4.397-3.461 7.576-10.664 7.576-18.427s-3.086-14.030-7.576-16.275zM625.181 353.78c-6.735 0.655-12.16 9.448-12.16 19.736 0 10.195 5.425 18.147 12.16 17.679 6.829-0.467 12.347-9.261 12.347-19.736 0-10.383-5.613-18.335-12.347-17.679zM791.679 280.634c0-6.547-3.928-11.224-8.699-10.57l-124.686 18.333c-3.928 0.561-6.080 5.8-6.080 11.693v7.763c0 5.893 2.152 10.289 6.080 9.821l125.155-15.528c4.771-0.561 8.232-6.36 8.232-12.909v-8.604zM782.98 342.836l-124.686 11.973c-3.928 0.374-6.080 5.425-6.080 11.318v7.763c0 5.893 2.152 10.57 6.080 10.195l125.060-9.167c4.771-0.374 8.232-5.893 8.232-12.44v-8.605h0.093c0-6.547-3.928-11.505-8.699-11.036zM782.98 415.608l-124.686 5.518c-3.928 0.187-6.080 4.957-6.080 10.851v7.763c0 5.893 2.152 10.757 6.080 10.664l125.060-2.806c4.771-0.093 8.232-5.425 8.232-11.973v-8.512h0.093c0-6.547-3.928-11.692-8.699-11.505zM625.087 317.768c-3.555 0.467-6.454-3.648-6.454-9.073s2.899-10.382 6.454-10.851c3.648-0.561 6.547 3.555 6.547 9.073s-2.899 10.383-6.547 10.851zM511.813 514.483v-17.821l60.8 0.794c0.064 0 0.124 0.024 0.187 0.031 1.597 0.161 2.899 2.31 2.899 4.74v178.189c0 2.525-1.496 4.397-3.086 4.115l-136.192-23.478c-1.309-0.187-2.432-2.339-2.432-4.584v-104.465l19.615 2.888 15.087 26.559 12.909-20.392 43.683 74.924 38.163-55.094v-64.915l-51.633-1.49zM458.496 597.353c-8.232-0.936-14.872 9.541-14.872 23.384 0 13.75 6.641 26.003 14.872 27.313 8.419 1.309 15.247-9.073 15.247-23.291 0.092-14.217-6.829-26.47-15.247-27.406zM614.106 429.674l15.66-1.349v352.475l-237.212-64.010v-170.886l31.99 4.71v104.265c0 11.224 5.331 21.421 11.88 22.637l136.192 25.629c8.512 1.59 15.621-7.763 15.621-20.765v-179.873c0-6.893-1.998-13.128-5.144-17.466-1.489-2.052-3.233-3.68-5.146-4.751-1.614-0.904-3.347-1.407-5.144-1.44-0.063-0.001-0.124-0.008-0.187-0.008l-60.8 0.166v-40.52l102.291-8.814zM330.414 383.058c-7.528 0.187-14.062-10.656-16.255-26.971l-0.072-0.671c-0.27-2.474-0.575-5.279-0.575-8.559v-21.981l0.093-0.936c0-2.273 0.174-4.531 0.343-6.715l0.123-1.637c2.148-16.239 8.475-27.378 16.114-28.321 2.742-0.362 5.284 0.463 7.543 2.446 6.962 6.111 10.956 22.405 10.956 44.704-0.003 23.163-5.719 48.264-18.271 48.641zM259.050 336.247c-4.33-3.843-6.525-10.689-6.525-20.349 0-14.593 4.55-20.362 8.445-20.867 4.264-0.553 10.025 3.775 12.237 17.832 0.361 2.162 0.55 4.535 0.55 6.87v20.206c-1.042 0.1-2.047 0.151-3.013 0.151-4.891 0-8.814-1.286-11.694-3.843zM433.989 541.605l-233.471-34.377v-317.050l301.005-74.979v436.348l-67.534-9.943zM275.391 277.686l-0.691 12.663c-4.579-10.602-11.415-13.737-16.604-12.979-11.67 1.724-16.983 20.404-16.983 37.032 0 16.678 3.827 28.701 11.377 35.735 5.345 4.98 12.425 7.292 21.080 6.883v1.532c0 22.49-6.321 27.369-11.622 27.501-0.063 0.001-0.125 0.001-0.189 0.001-4.529 0-9.362-2.988-12.963-8.028l-1.341-1.878-2.552 16.87 0.215 0.306c4.829 6.885 11.539 10.751 18.363 10.688 14.493-0.16 22.156-17.949 22.156-51.446v-46.021c0-11.421 0.323-21.65 0.933-29.58l0.092-1.194-11.269 1.915zM345.176 270.637c-3.346-2.88-7.020-4.369-10.733-4.369-0.694 0-1.389 0.052-2.084 0.156-8.982 1.389-15.757 9.092-20.178 22.92l-0.379-16.879-11.414 1.455 0.028 0.851c0.283 8.614 0.467 21.268 0.467 32.239v152.42l12.721 0.658v-75.466c4.477 12.255 11.62 18.92 20.426 18.92 0.054 0 0.106 0 0.16 0 16.979-0.1 28.709-28.564 28.521-69.222 0-30.876-6.391-54.089-17.536-63.683zM410.63 276.978c7.255-0.965 12.157 1.925 16.186 4.705l1.284 0.886 2.478-21.792-0.393-0.324c-3.405-2.794-9.741-5.613-17.517-5.613-1.555 0-3.165 0.113-4.822 0.36-22.021 3.308-36.248 32.787-36.248 75.101 0 28.431 6.87 51.553 18.848 63.438 5.929 5.882 12.879 8.832 20.54 8.773 8.582-0.1 15.986-4.283 19.718-7.835l0.356-0.339-3.566-22.346-1.311 1.46c-2.725 3.037-7.58 6.698-15.229 6.892-4.47 0.109-8.525-1.527-12.004-4.909-8.050-7.828-12.667-24.244-12.667-45.041 0.001-30.071 9.784-51.538 24.347-53.417z" />
</font>
</defs>
</svg>
